Deep Purple Live At Montreux 2006 Bdrip 1080p

deep purple live at montreux 2006 bdrip 1080p

 

Deep Purple Live At Montreux 2006 Bdrip 1080p >>> http://urlin.us/62zxe

 

 

 

 

 

 

 

 

 

 

 

 

 

 

 

 

 

 

 

 

 

 

 

 

 

 

 

 

 

 

 

 

 

 

 

 

 

 

 

 

 

 

 

 

 

 

 

 

Deep Purple Live At Montreux 2006 Bdrip 1080p

 

8a9bf390f8

Bitrate:. Gre:. walking dead. Trackliste:01 - Pictures Of Home02 - Things I Never Said03 - Strange Kind Of Woman04 - Rapture Of The Deep05 - Wrong Man06 - The Well-Dressed Guitar07 - Kiss Tomorrow Goodbye08 - When A Blind Man Cries09 - Lazy10 - Keyboard Solo11 - Space Truckin'12 - Highway Star13 - Smoke On The Water14 - Hush65 - Too Much Fun16 - Black Night MediaInfo:Complete name : C:Deep.Purple.Live.at.Montreux.2006.DTS.720p.BluRay.x264-.mkvFormat : MatroskaFormat version : Version 2File size : 4.17 GiBDuration : 1h 43mnOverall bit rate mode : VariableOverall bit rate : 5 785 KbpsEncoded date : UTC 2010-05-27 15:16:13Writing application : mkvmerge v3.2.0 ('Beginnings') gebaut am Feb 12 2010 16:46:17Writing library : libebml v0.7.9 + libmatroska v0.8.1VideoID : 1Format : AVCFormat/Info : Advanced Video CodecFormat profile : HighL4.1Format settings, CABAC : YesFormat settings, ReFrames : 3 framesCodec ID : VMPEG4/ISO/AVCDuration : 1h 43mnBit rate mode : VariableBit rate : 4 161 KbpsMaximum bit rate : 40.0 MbpsWidth : 1 280 pixelsHeight : 720 pixelsDisplay aspect ratio : 16:9Frame rate mode : ConstantFrame rate : 23.976 fpsColor space : YUVChroma subsampling : 4:2:0Bit depth : 8 bitsScan type : ProgressiveBits/(Pixel*Frame) : 0.188Stream size : 3.00 GiB (72%)Writing library : x264 core 80 r1376M 3feaec2Encoding settings : cabac=1 / ref=4 / deblock=1:0:0 / analyse=0x3:0x113 / me=hex / subme=7 / psy=1 / psyrd=1.0:0.0 / mixedref=1 / merange=16 / chromame=1 / trellis=0 / 8x8dct=1 / cqm=0 / deadzone=21,11 / fastpskip=1 / chromaqpoffset=-2 / threads=6 / slicedthreads=0 / slices=4 / nr=0 / decimate=1 / mbaff=0 / constrainedintra=0 / bframes=3 / bpyramid=1 / badapt=1 / bbias=0 / direct=1 / wpredb=1 / wpredp=2 / keyint=24 / keyintmin=2 / scenecut=40 / rclookahead=24 / rc=crf / mbtree=1 / crf=20.0 / qcomp=0.60 / qpmin=10 / qpmax=51 / qpstep=4 / vbvmaxrate=40000 / vbvbufsize=30000 / ipratio=1.40 / aq=1:1.00Language : EnglishDefault : NoForced : NoAudioID : 2Format : DTSFormat/Info : Digital Theater SystemsMode : 16Format settings, Endianness : BigCodec ID : ADTSDuration : 1h 43mnBit rate mode : ConstantBit rate : 1 509 KbpsChannel(s) : 6 channelsChannel positions : Front: L C R, Side: L R, LFESampling rate : 48.0 KHzBit depth : 16 bitsCompression mode : LossyStream size : 1.09 GiB (26%)Default : YesForced : NoMenu00:00:00.000 : en:Pictures Of Home00:03:59.197 : en:Things I Never Said00:09:45.877 : en:Strange Kind Of Woman00:15:10.576 : en:Rapture Of The Deep00:20:47.121 : en:Wrong Man00:25:45.544 : en:The Well-Dressed Guitar00:34:25.272 : en:Kiss Tomorrow Goodbye00:38:48.952 : en:When A Blind Man Cries00:42:48.065 : en:Lazy00:50:29.401 : en:Keyboard Solo00:53:50.185 : en:Space Truckin'00:58:51.194 : en:Highway Star01:07:37.470 : en:Smoke On The Water01:17:59.842 : en:Hush01:24:32.484 : en:Too Much Fun01:31:38.868 : en:Black Night Download: Share-Online.biz Share-Online.bizShare-Online.bizShare-Online.biz Uploaded.net Uploaded.netUploaded.netUploaded.net. When A Blind Man Cries 9. .. top gear. Sie machten einen jungen, frischen und ambitionierten Eindruck, was beim Publikum Bewunderung und gleichzeitig Beigeisterung auslste. o o. Der einzigartige Klang der Hammond-Orgel (ursprnglich gespielt von Jon Lord) und die fantastischen Gitarrenriffs (ursprnglich gespielt von Ritchie Blackmore) sind charakteristisch fr die Band und bilden den Unterschied zu anderen Rockbands von damals – und auch von heute.

 

rogue one. Wrong Man 6. Laufzeit:. :. Bit Torrent Scene a public file sharing platform Home Upload Categories About . Genre:. homeland. Rapture Of The Deep 5.

detour mortel 2 720p projector
magadheera blu ray video songs 1080p tvs